<?xml version="1.0" encoding="UTF-8" standalone="no"?>
<!-- Creator: CorelDRAW 2021.5 -->

<svg
   xml:space="preserve"
   width="210mm"
   height="297mm"
   version="1.1"
   style="clip-rule:evenodd;fill-rule:evenodd;image-rendering:optimizeQuality;shape-rendering:geometricPrecision;text-rendering:geometricPrecision"
   viewBox="0 0 8265.2964 11689.508"
   id="svg670"
   sodipodi:docname="presisi.svg"
   inkscape:version="1.1.1 (3bf5ae0d25, 2021-09-20)"
   xmlns:inkscape="http://www.inkscape.org/namespaces/inkscape"
   xmlns:sodipodi="http://sodipodi.sourceforge.net/DTD/sodipodi-0.dtd"
   xmlns:xlink="http://www.w3.org/1999/xlink"
   xmlns="http://www.w3.org/2000/svg"
   xmlns:svg="http://www.w3.org/2000/svg"><sodipodi:namedview
   id="namedview672"
   pagecolor="#ffffff"
   bordercolor="#999999"
   borderopacity="1"
   inkscape:pageshadow="0"
   inkscape:pageopacity="0"
   inkscape:pagecheckerboard="0"
   inkscape:document-units="px"
   showgrid="false"
   inkscape:zoom="0.26124924"
   inkscape:cx="377.03459"
   inkscape:cy="618.18362"
   inkscape:window-width="1440"
   inkscape:window-height="837"
   inkscape:window-x="1358"
   inkscape:window-y="-8"
   inkscape:window-maximized="1"
   inkscape:current-layer="Layer_x0020_1"
   units="mm" />
 <defs
   id="defs155">
  <font
   id="FontID0"
   horiz-adv-x="500"
   font-variant="normal"
   style="fill-rule:nonzero"
   font-style="normal"
   font-weight="400"
   horiz-origin-x="0"
   horiz-origin-y="0"
   vert-origin-x="512"
   vert-origin-y="768"
   vert-adv-y="1024">
	<font-face
   font-family="Arroyo"
   id="font-face2">
		<font-face-src>
			<font-face-name
   name="Arroyo" />
		</font-face-src>
	</font-face>
   <missing-glyph
   id="missing-glyph6"><path
     d="M0 0z"
     id="path4" /></missing-glyph>
   <glyph
   unicode="-"
   horiz-adv-x="299"
   d="M0 270.002l0 139.992 249.993 0 0 -139.992 -249.993 0z"
   id="glyph8" />
   <glyph
   unicode="A"
   horiz-adv-x="500"
   d="M189.006 119.998l-8.67026 -119.998 -180.336 0 89.8287 799.994 260.344 0 94.8273 -799.994 -179.834 0 -10.1595 119.998 -66.0002 0zm59.1583 129.995l-27.8245 325.179 -26.3352 -325.179 54.1597 0z"
   id="glyph10" />
   <glyph
   unicode="B"
   horiz-adv-x="500"
   d="M209.001 0l-209.001 0 0 799.994 240.334 0c63.1691,0 112.168,-12.6663 147.159,-37.8218 35.0055,-25.3325 52.5082,-63.6704 52.5082,-114.999l0 -91.834c0,-30.0068 -1.00268,-51.1664 -3.00805,-63.5082 -1.82842,-12.3271 -6.8271,-23.1649 -14.8338,-32.4987 -7.99198,-9.33381 -23.3271,-21.3365 -46.1529,-36.3325 42.6583,-25.4947 63.9948,-61.1637 63.9948,-107.007l0 -181.161c0,-30.9947 -14.0081,-61.1637 -41.9948,-90.6691 -28.0014,-29.4907 -91.0083,-44.1623 -189.006,-44.1623zm-39.0014 140.169l40.0041 0c39.9894,2.32976 59.9988,20.8352 59.9988,55.6637l0 91.3327c0,22.0001 -4.33513,37.8366 -13.1676,47.3326 -8.83246,9.33381 -24.3298,14.6716 -46.8312,15.6743l-40.0041 0 0 -210.003zm0 349.996l40.0041 0c19.169,1.00268 34.0028,5.83916 44.3245,14.1703 10.4987,8.49332 15.6743,22.3245 15.6743,41.4934l0 51.1664c0,17.6649 -3.67159,32.0122 -11.1622,43.1744 -7.50538,11.3244 -23.8432,17.8271 -48.8366,19.8325l-40.0041 0 0 -169.837z"
   id="glyph12" />
   <glyph
   unicode="D"
   horiz-adv-x="500"
   d="M0 0l0 799.994 214.84 0c58.4948,0 108.998,-11.6636 151.494,-34.9907 42.4961,-23.1649 63.6704,-76.1745 63.6704,-158.999l0 -446.003 0 -1.00268c-1.66622,-62.3286 -25.1703,-104.5 -70.8367,-126.338 -45.5041,-21.8231 -96.3314,-32.6609 -152.172,-32.6609l-206.995 0zm169.999 140.007c28.3406,1.32708 50.3406,6.6649 65.838,16.1609 15.4974,9.33381 23.1649,28.8272 23.1649,58.4948l0 364.343c0,34.8285 -7.16624,56.9908 -21.4987,66.6637 -14.3325,9.496 -36.8339,14.3325 -67.5042,14.3325l0 -519.995z"
   id="glyph14" />
   <glyph
   unicode="E"
   horiz-adv-x="399"
   d="M0 0l0 799.994 350.173 0 0 -139.992 -180.173 0 0 -140.007 180.173 0 0 -139.992 -180.173 0 0 -239.995 180.173 0 0 -140.007 -350.173 0z"
   id="glyph16" />
   <glyph
   unicode="F"
   horiz-adv-x="399"
   d="M0 0l0 799.994 350.173 0 0 -129.995 -180.173 0 0 -179.996 180.173 0 0 -130.01 -180.173 0 0 -359.993 -169.999 0z"
   id="glyph18" />
   <glyph
   unicode="G"
   horiz-adv-x="480"
   d="M439.998 480.003l0 -480.003 -60.1639 0 -34.6717 40.0049c-50.0006,-24.676 -91.9957,-37.0085 -125.829,-37.0085 -43.3368,0 -81.6646,9.00055 -115.006,27.1694 -33.4977,18.0011 -59.1576,41.5031 -77.1587,70.5062 -18.1688,28.9918 -27.1694,58.6657 -27.1694,89.3234l0 419.839c0,33.1623 9.16826,65.1617 27.6613,95.9984 18.3365,30.6689 44.3431,55.8369 77.8408,75.1686 33.4977,19.3316 71.8367,29.003 114.827,29.003 34.504,0 68.6725,-7.83774 102.506,-23.5021 33.8331,-15.5078 61.8299,-38.6744 84.0014,-69.1645 22.1604,-30.6689 33.1623,-66.5034 33.1623,-107.503l0 -84.8399 -169.993 0 0 66.8389c0,22.1715 -5.33324,41 -15.8432,56.6643 -10.6665,15.6643 -22.6635,23.5021 -36.3264,23.5021 -7.83774,0 -15.3401,-2.82874 -22.6635,-8.49741 -7.33461,-5.66867 -13.3387,-14.6692 -18.1688,-26.8339 -4.67358,-12.3324 -6.99918,-27.8402 -6.99918,-46.6687l0 -385c0,-20.8298 4.83011,-36.6619 14.658,-47.6638 9.6714,-10.8342 21.6684,-16.3352 35.6668,-16.3352 13.0033,0 24.5083,5.33324 34.504,15.832 10.1634,10.6665 15.1724,25.0003 15.1724,43.3368l0 139.827 -49.6763 0 0 140.006 219.669 0z"
   id="glyph20" />
   <glyph
   unicode="I"
   horiz-adv-x="220"
   d="M0 0l0 799.994 169.999 0 0 -799.994 -169.999 0z"
   id="glyph22" />
   <glyph
   unicode="J"
   horiz-adv-x="500"
   d="M0 205l0 174.834 170.004 0 0 -179.664c0,-19.0074 4.83011,-33.6654 14.658,-44.3319 9.6714,-10.51 21.6684,-15.8432 35.6668,-15.8432 13.3387,0 24.8326,5.17671 34.8394,15.3401 9.82793,10.3311 14.8369,24.4971 14.8369,42.8337l0 601.829 169.993 0 0 -594.83c0,-63.8312 -21.333,-113.832 -63.9989,-150.002 -42.666,-36.1699 -93.3374,-54.4952 -151.835,-55.1661 -27.6613,0 -54.9984,4.17044 -81.8323,12.6679 -26.8339,8.49741 -50.9957,21.333 -72.4963,38.6632 -21.5007,17.1737 -38.5067,38.9986 -51.0068,65.1729 -12.5001,26.1631 -18.8285,55.658 -18.8285,88.4961z"
   id="glyph24" />
   <glyph
   unicode="K"
   horiz-adv-x="500"
   d="M0 0l0 799.994 169.999 0 0 -279.999 89.8287 279.999 165 0 -114.822 -349.656 140.155 -450.338 -165 0 -115.161 379.84 0 -379.84 -169.999 0z"
   id="glyph26" />
   <glyph
   unicode="L"
   horiz-adv-x="399"
   d="M0 0l0 799.994 169.999 0 0 -659.987 169.999 0 0 -140.007 -339.998 0z"
   id="glyph28" />
   <glyph
   unicode="M"
   horiz-adv-x="740"
   d="M0 0l0 799.998 259.663 0 79.8421 -385 79.8309 385 260.669 0 0 -799.998 -171.01 0 0 519.997 -89.6589 -519.997 -159.673 0 -89.6589 519.997 0 -519.997 -170.004 0z"
   id="glyph30" />
   <glyph
   unicode="N"
   horiz-adv-x="480"
   d="M0 0l0 799.994 169.999 0 119.998 -279.999 0 279.999 140.007 0 0 -799.994 -140.007 0 -119.998 379.84 0 -379.84 -169.999 0z"
   id="glyph32" />
   <glyph
   unicode="O"
   horiz-adv-x="500"
   d="M440.001 189.994c0,-32.6609 -9.17161,-63.4935 -27.6623,-92.822 -18.3432,-29.3432 -44.5015,-52.8326 -78.342,-70.5123 -33.8258,-17.8271 -71.8246,-26.6596 -113.657,-26.6596 -32.0122,0 -65.1744,7.00404 -99.6786,20.8352 -34.4894,13.8311 -63.3313,35.1677 -86.1571,64.1718 -23.0027,28.9894 -34.5041,63.8326 -34.5041,104.987l0 419.844c0,33.1623 9.17161,65.1597 27.6623,95.9922 18.3432,30.6703 44.3393,55.8406 77.8407,75.1718 33.5014,19.3312 71.8246,29.0041 114.837,29.0041 34.4894,0 68.6543,-7.84453 102.495,-23.5041 33.8258,-15.4974 61.8272,-38.6623 84.0042,-69.3326 22.1623,-30.5081 33.1623,-66.3393 33.1623,-107.331l0 -419.844zm-169.999 401.84c0,23.1649 -4.49733,41.9948 -13.3298,56.6664 -9.00941,14.6716 -21.1743,22.1623 -36.3325,22.5014 -14.6716,0 -26.8365,-6.5027 -36.1703,-19.3312 -9.496,-12.8432 -14.1703,-33.5014 -14.1703,-61.842l0 -384.824c0,-20.8352 4.83647,-36.6717 14.6716,-47.6717 9.6582,-10.8378 21.6609,-16.3378 35.669,-16.3378 12.9907,0 24.492,5.33782 34.4894,15.8365 10.1743,10.6756 15.173,25.0081 15.173,43.3366l0 391.666z"
   id="glyph34" />
   <glyph
   unicode="P"
   horiz-adv-x="500"
   d="M0 0l0 799.994 240.334 0c63.1691,0 112.168,-12.6663 147.159,-37.8218 35.0055,-25.3325 52.5082,-63.6704 52.5082,-115.176l0 -127.002c0,-113.333 -66.5015,-169.999 -199.667,-169.999l-70.3353 0 0 -349.996 -169.999 0zm169.999 490.003c35.1677,0 60.5002,3.49465 76.3367,10.3365 15.8365,6.8271 23.6663,21.8231 23.6663,45.3272l0 51.3286c0,19.169 -3.33245,33.3392 -9.99735,42.5108 -6.6649,9.15686 -16.8392,14.8338 -30.5081,17.0014 -13.6689,2.32976 -33.5014,3.49465 -59.4975,3.49465l0 -169.999z"
   id="glyph36" />
   <glyph
   unicode="R"
   horiz-adv-x="500"
   d="M384.839 387.006l50.3259 -387.006 -175.337 0 -39.488 349.996 -50.3406 0 0 -349.996 -169.999 0 0 799.994 240.334 0c63.1691,0 112.168,-12.6663 147.159,-37.8218 35.0055,-25.3325 52.5082,-63.6704 52.5082,-115.176l0 -127.002c0,-27.6623 -1.50403,-49.161 -4.67428,-64.4962 -2.99331,-15.3352 -6.8271,-26.4974 -11.1622,-33.5014 -4.49733,-7.00404 -9.83515,-12.9907 -16.3378,-17.8271 -6.6649,-4.83647 -14.1555,-10.4987 -22.988,-17.1636zm-214.84 102.996c26.3352,0 45.8285,1.00268 58.4948,2.99331 12.6663,1.84317 22.8405,6.84184 30.3459,14.8338 7.49064,8.00672 11.1622,20.673 11.1622,37.8366l0 51.3286c0,18.5054 -3.00805,32.1743 -8.83246,41.0068 -5.83916,8.83246 -15.6743,14.6716 -29.5054,17.6649 -13.8311,2.83111 -34.3272,4.33513 -61.665,4.33513l0 -169.999z"
   id="glyph38" />
   <glyph
   unicode="S"
   horiz-adv-x="500"
   d="M440.001 189.994c0,-32.6609 -9.17161,-63.4935 -27.6623,-92.822 -18.3432,-29.3432 -44.5015,-52.8326 -78.342,-70.5123 -33.8258,-17.8271 -71.8246,-26.6596 -113.657,-26.6596 -32.0122,0 -65.1744,7.00404 -99.6786,20.8352 -34.4894,13.8311 -63.3313,35.1677 -86.1571,64.1718 -23.0027,28.8272 -34.5041,63.8326 -34.5041,104.825l0 129.995 169.999 0 0 -132.988c0,-10.3365 4.67428,-20.8352 13.8311,-31.1717 9.33381,-10.4987 21.4987,-15.6596 36.5095,-15.6596 10.6609,0 21.6609,3.65685 32.8231,11 11.177,7.32844 16.8392,18.6529 16.8392,33.988 0,28.5028 -7.50538,55.0001 -22.5014,79.3447 -14.996,24.1529 -29.6676,43.3218 -44.3393,57.3299 -11.5014,11.6636 -26.6596,26.1582 -45.6663,43.4988 -19.169,17.1636 -35.9934,32.4987 -50.4881,45.6663 -14.6716,13.1676 -27.0135,24.669 -36.6717,34.6663 -9.83515,9.83515 -21.1743,23.3271 -34.165,40.3285 -24.1676,30.8325 -36.1703,72.1637 -36.1703,124.008 0,33.1623 9.17161,65.1597 27.6623,95.83 18.3432,30.8325 44.3393,55.8259 77.8407,75.334 33.5014,19.3312 71.8246,29.0041 114.837,29.0041 34.4894,0 68.6543,-7.84453 102.495,-23.5041 33.8258,-15.4974 61.8272,-38.6623 84.0042,-69.1704 22.1623,-30.6703 33.1623,-66.5015 33.1623,-107.494l0 -69.834 -169.999 0 0 89.9909c0,10.0121 -4.17293,19.169 -12.6663,27.5001 -8.50807,8.33112 -20.1716,12.5041 -35.1677,12.5041 -11.6636,0 -23.3419,-3.99599 -34.8285,-12.0027 -11.5014,-7.99198 -17.3405,-23.0027 -17.3405,-45.165 0,-16.5 14.0081,-37.4974 41.9948,-62.9921 8.83246,-7.84453 20.0094,-17.8419 33.6784,-30.169 13.6542,-12.5041 28.665,-26.6743 44.9881,-42.5108 16.1756,-15.9987 32.3365,-32.6609 48.3353,-49.8245 15.8365,-17.3405 31.1717,-35.669 45.8433,-55.1623 18.8298,-25.1703 32.8231,-49.6771 41.6556,-73.5056 9.00941,-24.0054 13.5067,-60.161 13.5067,-108.673z"
   id="glyph40" />
   <glyph
   unicode="T"
   horiz-adv-x="430"
   d="M100.003 0l0 660.002 -100.003 0 0 139.992 370.005 0 0 -139.992 -100.003 0 0 -660.002 -169.999 0z"
   id="glyph42" />
   <glyph
   unicode="U"
   horiz-adv-x="500"
   d="M0 205.168l0 594.83 170.004 0 0 -599.828c0,-12.8356 4.15926,-26.0066 12.6679,-39.6695 8.49741,-13.6629 20.9976,-20.5056 37.657,-20.5056 13.8418,0 25.6711,5.83638 35.3425,17.3414 9.4925,11.4939 14.3338,25.168 14.3338,40.8323l0 601.829 169.993 0 0 -594.83c0,-42.0063 -11.1696,-78.6681 -33.4977,-109.997 -22.3392,-31.1721 -50.5037,-54.8418 -84.6722,-71.0093 -34.1574,-16.1563 -67.9905,-24.1617 -101.499,-24.1617 -34.3251,0 -68.3259,8.00546 -102.327,24.1617 -34.0008,16.1674 -62.1653,39.8372 -84.5045,71.0093 -22.3281,31.3286 -33.4977,67.9905 -33.4977,109.997z"
   id="glyph44" />
   <glyph
   unicode="Y"
   horiz-adv-x="519"
   d="M0 799.998l180.167 0 49.8328 -210.166 49.8328 210.166 180.167 0 -145.004 -540.167 0 -259.831 -169.993 0 0 259.831 -145.004 540.167z"
   id="glyph46" />
  </font>
</defs>
</svg>
